Billy Chapin | Every Question | Vietnam Top

Скачать через торрент Симпсоны The Simpsons Фильм бесплатно в хорошем качестве torrent

Скачивайте на UnionPeer.org фильмы через торрент без регистрации. Новинки кино в хорошем качестве через торрент. На UnionPeer.org можно скачать через торрент фильмы 2014 и 2015 годов. Самые новые фильмы.

Скачать торрент Симпсоны The Simpsons бесплатно через .torrent фильм мультфильм сериал

Статистика раздачи
Размер:  3.82 GB   |    Зарегистрирован:  1 год 4 месяца   |    .torrent скачан:  33 раза   |   
Раздают:  1  
   
загрузка...
 
Автор Сообщение

Galfimbul

avatar Galfimbul


Симпсоны / The Simpsons

Страна: США
Жанр: анимация, комедия
Продолжительность серии: ~21 мин.
Год выпуска: 2006-2007
Перевод: Профессиональный (двухголосый закадровый) Ren-TV (Александр Котов и Нина Лунева)
Русские субтитры: есть

Режиссёр: Мэтт Гроунинг / Matt Groening
Роли озвучивали: Дэн Кастелланета, Хэнк Азариа, Джулия Кавнер, Нэнси Картрайт, Ярдли Смит, Гарри Ширер и др.

Описание: Симпсоны - это мультсериал-пародия на американский уклад жизни. Cемейство Симпсонов состоит из пяти членов: папаша Гомер, мать семейства Мардж, их дочери Лиза и Мэгги и несносный подросток Барт. Симпсоны с успехом демонстрируются в США и по всему миру уже более 20 лет.

Доп. информация: Видео взято с испаноязычного трекера.
За работу со звуком, сведение - огромное спасибо Jurich. Без него эта раздача не состоялась бы.
Тайминг русских субтитров пришлось практически переписывать заново, потитрово, плюс делать их читаемыми.
Английские сабы местами были не полные, поэтому тоже пришлось дописывать на слух.

Ссылка на предыдущие и альтернативные раздачи

Семпл: http://sendfile.su/1347427

Качество: WEBTVRip
Формат: MKV
Видео: AVC, 1280x720 (16:9), 24 fps, 1984 Кбит/сек
Аудио 1: 48 kHz, AC-3 5.1, (Russian), 448 Кбит/сек - Ren-TV
Аудио 2: 48 kHz, AAC 5.1, (English), 448 Кбит/сек - Original
Субтитры: Русские, Английские
1) «The Mook, the Chef, the Wife and Her Homer»
<div class="sp-wrap">
<div class="sp-head folded">Описание</div>
<div class="sp-body">Лиза подружилась с сыном Жирного Тони Майклом Де Амико. Жирный Тони приглашает Симпсонов на обед в знак уважения. За обедом выясняется, что Майкл лучше будет поваром, чем продолжит семейный бизнес. Помощники Жирного Тони хотят, чтобы Майкл стал их главарём, но когда он отказывается, его место занимает Гомер.
2) «Jazzy and the Pussycats»
Барт превращает тихие похороны в хаотичный дурдом, и его родителям приходится столкнуться с разъяренной толпой спрингфилдцев. Гомер и Мардж отчаянно ищут помощи детского психиатра, и он предлагает Барту заняться игрой на ударных, чтобы дать выход своей энергии. Вскоре, Барт выдаёт ритмы как профессионал, и начинает играть с группой The White Stripes и с любимыми джаз-музыкантами Лизы. Проходит совсем немного времени, и энтузиазм Лизы превращается в зависть…
3) «Please Homer, Don’t Hammer ’Em»
Мардж убеждает Гомера купить коллекцию книг о плотничестве, но в итоге они собирают пыль на полке. Тогда Мардж решает читать эти книги и вскоре становится мастерицей на все руки. Однако, жители Спрингфилда не доверяют женщине ремонт своих вещей, поэтому Гомер выступает в роли «ширмы» для её бизнеса.
4) «Treehouse of Horror XVII»
Ежегодные три Хэллоуиновских истории.
«Женатая на Слизняке» — Гомер ест таинственное зелёное вещество с метеорита, который превращает его в слизняка с жадным аппетитом.
«Вы Должны Знать, Когда к Голему» — Барт обнаруживает голема (гигантская глиняная кукла, связанная с еврейской мистикой) за кулисами на показе Красти и использует это, чтобы ничего не делать.
«День, когда земля отупела» — будучи дурачась, граждане Спрингфилда в 1938 году реагируют с беспечностью на реальное инопланетное вторжение.
5) «GI D'oh!»
Гомер становится жертвой двух рекрутеров и попадает на военные сборы. Гомер, конечно же, воспринимает армию как какой-то летний лагерь, тем самым выводит из себя жёсткого полковника.
6) «Moe'N'a Lisa»
Лиза открывает в бармене Мо талант к поэзии. Но когда с её помощью Мо публикуется и начинает вертеться в литературных кругах, он внезапно забывает о том, что Лиза для него сделала.
7) «Ice Cream of Margie (With the Light Blue Hair)»
Гомера устраивается на работу водителем-мороженщиком. А Мардж в свою очередь, превращает неожиданный поток палочек от мороженого в скульптуры, и это становится очень популярным в Спрингфилде.
8) «The Haw-Hawed Couple»
Барт становится лучшим другом Нельсона.
9) «Kill Gil: Vols. 1 & 2»
У Симпсонов нежеланный гость, которого они впустили на Рождество в свой дом. Это неудачник Спрингфилда, Гил. После почти целого года безуспешных попыток выгнать его, Мардж не выдерживает и решается в конце концов сделать это, но Гил уезжает сам. С этим Мардж не может смириться, потому что она должна хоть кому-то сказать "НЕТ!".
</div>
</div>
ОбщееУникальный идентификатор : 227064700102258600666748600621748657881 (0xAAD3120DDCCBCB86BD4B21678D1F1ED9)Полное имя : C:\Users\Иван\Desktop\The Simpsons 18\The Simpsons - 18x01 - The Mook, the Chef, the Wife, and Her Homer.mkvФормат : MatroskaВерсия формата : Version 4 / Version 2Размер файла : 435 МбайтПродолжительность : 21 м. 49 с.Общий поток : 2788 Кбит/секДата кодирования : UTC 2017-07-01 19:51:43Программа кодирования : mkvmerge v7.3.0 ('Nouages') 64bit built on Oct 22 2014 18:53:34Библиотека кодирования : libebml v1.3.0 + libmatroska v1.4.1

ВидеоИдентификатор : 1Формат : AVCФормат/Информация : Advanced Video CodecПрофиль формата : Main@L4.1Параметр CABAC формата : ДаПараметр ReFrames формата : 2 кадраПараметр GOP формата : M=3, N=30Идентификатор кодека : V_MPEG4/ISO/AVCПродолжительность : 21 м. 48 с.Битрейт : 1984 Кбит/секШирина : 1280 пикселейВысота : 720 пикселейСоотношение сторон : 16:9Режим частоты кадров : ПостоянныйЧастота кадров : 23,976 (24000/1001) кадра/секЦветовое пространство : YUVСубдискретизация насыщенности : 4:2:0Битовая глубина : 8 битТип развёртки : ПрогрессивнаяБит/(Пиксели*Кадры) : 0.090Размер потока : 309 Мбайт (71%)Default : ДаForced : Нет

Аудио #1Идентификатор : 2Формат : AACФормат/Информация : Advanced Audio CodecПрофиль формата : LCИдентификатор кодека : A_AACПродолжительность : 21 м. 49 с.Битрейт : 353 Кбит/секКаналы : 6 каналовРасположение каналов : Front: L C R, Side: L R, LFEЧастота : 48,0 КГцЧастота кадров : 46,875 кадров/сек (1024 spf)Метод сжатия : С потерямиРазмер потока : 55,3 Мбайт (13%)Заголовок : OriginalЯзык : EnglishDefault : НетForced : Нет

Аудио #2Идентификатор : 3Формат : AC-3Формат/Информация : Audio Coding 3Параметр Endianness формата : BigИдентификатор кодека : A_AC3Продолжительность : 21 м. 49 с.Вид битрейта : ПостоянныйБитрейт : 448 Кбит/секКаналы : 6 каналовРасположение каналов : Front: L C R, Side: L R, LFEЧастота : 48,0 КГцЧастота кадров : 31,250 кадров/сек (1536 spf)Битовая глубина : 16 битМетод сжатия : С потерямиРазмер потока : 69,9 Мбайт (16%)Заголовок : Ren-TVЯзык : RussianServiceKind/String : Complete MainDefault : ДаForced : Да

Текст #1Идентификатор : 4Формат : UTF-8Идентификатор кодека : S_TEXT/UTF8Идентификатор кодека/Информация : UTF-8 Plain TextПродолжительность : 20 м. 17 с.Битрейт : 141 бит/секElementCount : 307Размер потока : 21,0 Кбайт (0%)Заголовок : РусскиеЯзык : RussianDefault : НетForced : Нет

Текст #2Идентификатор : 5Формат : UTF-8Идентификатор кодека : S_TEXT/UTF8Идентификатор кодека/Информация : UTF-8 Plain TextПродолжительность : 19 м. 46 с.Битрейт : 76 бит/секElementCount : 297Размер потока : 11,1 Кбайт (0%)Заголовок : АнглийскиеЯзык : EnglishDefault : НетForced : Нет
Внимание! Раздача ведётся путём добавления новых серий; при каждом добавлении создётся новый торрент.
Чтобы начать докачку новой серии, пользователям необходимо сделать следующее:
1) остановить скачивание
2) удалить старый торрент у себя из клиента (старые серии удалять не надо)
3) скачать новый торрент и запустить его у себя в клиенте вместо старого, при этом указать клиенту путь в старую папку куда и должно происходить скачивание новых серий.
Ваш клиент при этом должен произвести хеширование (проверку) старой папки (если не производит сам - помогите ему сделать это), и будет докачивать только те серии которых у вас ещё нет. Старые серии при этом не удаляются, а продолжают раздаваться!
Eсли вы уже удалили старые серии, то предотвратить повторную закачку старых серий можно, отжав галочку в соответствовавших местах при запуске нового торрента.


Трекер:  [ 09-Июл-2017 17:24 ]

  

Скачать .torrent

Размер .torrent файла 20 KB


Размер: 3.82 GB
Хэш (hash) релиза: 8972094e396ca4487631eda812b4d7cbb7364c90
Подписка на обновления:

Еще никто не оставлял запись к записи скачать торрент Симпсоны The Simpsons . Будь первым!

!Обратная связь