I know you'll be VERY satisfied after this AMAZING video 😍 | High School Musical 1 | A Student's Manual for A First Course in General Relativity (2016) - pdf - zeke23

Скачать через торрент Симпсоны The Simpsons Фильм бесплатно в хорошем качестве torrent

Скачивайте на UnionPeer.org фильмы через торрент без регистрации. Новинки кино в хорошем качестве через торрент. На UnionPeer.org можно скачать через торрент фильмы 2014 и 2015 годов. Самые новые фильмы.

Скачать торрент Симпсоны The Simpsons бесплатно через .torrent фильм мультфильм сериал

Статистика раздачи
Размер:  11.94 GB   |    Зарегистрирован:  9 месяцев   |    .torrent скачан:  20 раз   |   
Раздают:  1  
   
загрузка...
 
Автор Сообщение

Galfimbul

avatar Galfimbul


Симпсоны / The Simpsons

сезон: 15, 16, 17

Страна: США
Жанр: мультсериал
Продолжительность серии: 00:22:00
Год выпуска: 2003, 2004, 2005
Перевод: Профессиональный (многоголосый закадровый) 2х2
Русские субтитры: нет

Режиссёр: Мэтт Гроунинг / Matt Groening
Описание: Симпсоны — самый длинный мультсериал в истории американского телевидения. Мультисериал в настоящее время знаком телезрителям более чем 100 стран. Это насыщенное сатирой (в том числе социальной) шоу высмеивает многие клише и стереотипы, в частности — стиль жизни «среднестатистического американца», особенности мировых культур в целом, знаменитостей и даже само телевидение и телеканал «Fox»; не стесняется затрагивать такие скользкие вопросы, как политика и религия: в частности, поднимались темы однополых браков, борьбы дарвинистов и креационистов, войны в Ираке. Журнал Time в 1998 году назвал «Симпсонов» лучшим телевизионным сериалом XX века.

Качество: BDRip
Формат: MP4
Видео: H.264, 960x720 (4:3), 23.976 fps, 1214 kbps
Аудио: русский (многоголосый закадровый) AAC/2.0/132 Kbps/48 KHz
Субтитры: отсутствуют
ОбщееПолное имя : /Users/cynortas/Movies/Simpsons/15/01. Treehouse of Horror XIV.mp4Формат : MPEG-4Профиль формата : Base Media / Version 2Идентификатор кодека : mp42 (isom/iso2/avc1/mp41)Размер файла : 191 МбайтПродолжительность : 22 м. 1 с.Режим общего битрейта : ПеременныйОбщий поток : 1214 Кбит/секНазвание фильма : 15x01 [EABF21] - Treehouse of Horror XIVДата кодирования : UTC 2017-12-19 06:14:59Дата пометки : UTC 2017-12-19 06:14:59Программа кодирования : HandBrake 1.0.7 2017040900

ВидеоИдентификатор : 1Формат : AVCФормат/Информация : Advanced Video CodecПрофиль формата : Main@L4Настройки формата : CABAC / 4 Ref FramesПараметр CABAC формата : ДаПараметр ReFrames формата : 4 кадраИдентификатор кодека : avc1Идентификатор кодека/Информация : Advanced Video CodingПродолжительность : 22 м. 1 с.Битрейт : 1074 Кбит/секШирина : 960 пикселейВысота : 720 пикселейСоотношение сторон : 4:3Режим частоты кадров : ПеременныйЧастота кадров : 23,976 (24000/1001) кадра/секМинимальная частота кадров : 23,974 кадра/секМаксимальная частота кадров : 23,981 кадра/секЦветовое пространство : YUVСубдискретизация насыщенности : 4:2:0Битовая глубина : 8 битТип развёртки : ПрогрессивнаяБит/(Пиксели*Кадры) : 0.065Размер потока : 169 Мбайт (88%)Библиотека кодирования : x264 core 148 r2708 86b7198Настройки программы : cabac=1 / ref=2 / deblock=1:0:0 / analyse=0x1:0x111 / me=hex / subme=6 / psy=1 / psy_rd=1.00:0.00 / mixed_ref=1 / me_range=16 / chroma_me=1 / trellis=1 / 8x8dct=0 / cqm=0 / deadzone=21,11 / fast_pskip=1 / chroma_qp_offset=-2 / threads=6 / lookahead_threads=1 / sliced_threads=0 / nr=0 / decimate=1 / interlaced=0 / bluray_compat=0 / constrained_intra=0 / bframes=3 / b_pyramid=2 / b_adapt=1 / b_bias=0 / direct=1 / weightb=1 / open_gop=0 / weightp=1 / keyint=240 / keyint_min=24 / scenecut=40 / intra_refresh=0 / rc_lookahead=30 / rc=crf / mbtree=1 / crf=22.0 / qcomp=0.60 / qpmin=0 / qpmax=69 / qpstep=4 / vbv_maxrate=20000 / vbv_bufsize=25000 / crf_max=0.0 / nal_hrd=none / filler=0 / ip_ratio=1.40 / aq=1:1.00Дата кодирования : UTC 2017-12-19 06:14:59Дата пометки : UTC 2017-12-19 06:14:59Цветовой диапазон : LimitedОсновные цвета : BT.709Характеристики трансфера : BT.709Коэффициенты матрицы : BT.709

АудиоИдентификатор : 2Формат : AACФормат/Информация : Advanced Audio CodecПрофиль формата : LCИдентификатор кодека : mp4a-40-2Продолжительность : 22 м. 1 с.Вид битрейта : ПеременныйБитрейт : 132 Кбит/секКаналы : 2 каналаРасположение каналов : Front: L RЧастота : 48,0 КГцЧастота кадров : 46,875 кадров/сек (1024 SPF)Метод сжатия : С потерямиРазмер потока : 21,0 Мбайт (11%)Заголовок : Stereo / StereoЯзык : RussianDefault : ДаAlternate group : 1Дата кодирования : UTC 2017-12-19 06:14:59Дата пометки : UTC 2017-12-19 06:14:59
Предыдущие и альтернативные раздачи

Трекер:  [ 16-Янв-2018 17:24 ]

  

Скачать .torrent

Размер .torrent файла 124 KB


Размер: 11.94 GB
Хэш (hash) релиза: 793d46a58a5224d5d634538cd0f409536759c3a2
Подписка на обновления:

Еще никто не оставлял запись к записи скачать торрент Симпсоны The Simpsons . Будь первым!

!Обратная связь