Yakari (5) | Thugs of Hindostan (2018) 1080p Hindi New HQ PreDVD x264 AAC - 2.... | Sathuranga Vettai 2 Full Movie Download

Скачать через торрент Константин: Город Демонов Constantine: City of Demons Фильм бесплатно в хорошем качестве torrent

Скачивайте на UnionPeer.org фильмы через торрент без регистрации. Новинки кино в хорошем качестве через торрент. На UnionPeer.org можно скачать через торрент фильмы 2014 и 2015 годов. Самые новые фильмы.

Скачать торрент Константин: Город Демонов Constantine: City of Demons бесплатно через .torrent фильм мультфильм сериал

Статистика раздачи
Размер:  1.77 GB   |    Зарегистрирован:  7 месяцев   |    .torrent скачан:  32 раза   |   
Раздают:  1  
   
загрузка...
 
Автор Сообщение

Galfimbul

avatar Galfimbul


Константин: Город Демонов / Constantine: City of Demons

Страна: США
Жанр: Анимация, Фэнтези, Ужасы
Продолжительность серии: 00:05:50
Год выпуска: 2018
Перевод: Субтитры [UGN SUBZ Translators]
Русские субтитры: есть

Режиссёр: Даг Мёрфи/Doug Murphy
Роли озвучивали: Мэтт Райан, Эмили О'Брайан, Дэмиан О'Хейр

Описание: Анимационный Сериал сосредоточен на приключениях детектива-оккультиста Джона Константина.

Список серий:
1. Последняя девочка
2.
3.
4.
5.

Семпл: http://multi-up.com/1192288

Качество: WEBRip
Формат: MKV
Видео: AVC, 1920x1080, 23.976 fps, 8495 kbps
Аудио: AAC, 48,0 KHz, 6 ch, 97,9 kbps
Субтитры: русские, английскиеРаздача Ведётся Путём Добавления Новых Серий
ОбщееУникальный идентификатор : 187528706903219647274046576033433651304 (0x8D14B717B8BA6AD7A3BDEF7A3A440868)Полное имя : Constantine.City.of.Demons.S01E01.1080p.WEBRip.AAC2.0.H.264[UGN].mkvФормат : MatroskaВерсия формата : Version 4 / Version 2Размер файла : 346 МбайтПродолжительность : 5 м. 50 с.Общий поток : 8283 Кбит/секДата кодирования : UTC 2018-03-25 15:02:54Программа кодирования : mkvmerge v18.0.0 ('Apricity') 64-bitБиблиотека кодирования : libebml v1.3.5 + libmatroska v1.4.8

ВидеоИдентификатор : 1Формат : AVCФормат/Информация : Advanced Video CodecПрофиль формата : High@L4Настройки формата : CABAC / 4 Ref FramesПараметр CABAC формата : ДаПараметр RefFrames формата : 4 кадраИдентификатор кодека : V_MPEG4/ISO/AVCПродолжительность : 5 м. 50 с.Битрейт : 8495 Кбит/секШирина : 1920 пикселейВысота : 1080 пикселейСоотношение сторон : 16:9Режим частоты кадров : ПостоянныйЧастота кадров : 23,976 (24000/1001) кадра/секЦветовое пространство : YUVСубдискретизация насыщенности : 4:2:0Битовая глубина : 8 битТип развёртки : ПрогрессивнаяБит/(Пиксели*Кадры) : 0.171Размер потока : 342 Мбайт (99%)Заголовок : H.264Библиотека кодирования : x264 core 118Настройки программы : cabac=1 / ref=3 / deblock=1:0:0 / analyse=0x3:0x113 / me=hex / subme=7 / psy=1 / psy_rd=1.00:0.00 / mixed_ref=1 / me_range=16 / chroma_me=1 / trellis=1 / 8x8dct=1 / cqm=0 / deadzone=21,11 / fast_pskip=1 / chroma_qp_offset=-2 / threads=1 / sliced_threads=0 / nr=0 / decimate=1 / interlaced=0 / bluray_compat=0 / constrained_intra=0 / bframes=3 / b_pyramid=2 / b_adapt=1 / b_bias=0 / direct=1 / weightb=1 / open_gop=0 / weightp=2 / keyint=90 / keyint_min=9 / scenecut=40 / intra_refresh=0 / rc_lookahead=40 / rc=2pass / mbtree=1 / bitrate=8495 / ratetol=1.0 / qcomp=0.60 / qpmin=0 / qpmax=69 / qpstep=4 / cplxblur=20.0 / qblur=0.5 / vbv_maxrate=8495 / vbv_bufsize=8495 / nal_hrd=none / ip_ratio=1.40 / aq=1:1.00Default : ДаForced : Нет

АудиоИдентификатор : 2Формат : AACФормат/Информация : Advanced Audio CodecПрофиль формата : LCИдентификатор кодека : A_AAC-2Продолжительность : 5 м. 50 с.Битрейт : 97,9 Кбит/секКаналы : 2 каналаРасположение каналов : Front: L RЧастота : 48,0 КГцЧастота кадров : 46,875 кадров/сек (1024 SPF)Метод сжатия : С потерямиРазмер потока : 4,09 Мбайт (1%)Заголовок : AAC2.0Язык : EnglishDefault : ДаForced : Нет

Текст #1Идентификатор : 3Формат : UTF-8Идентификатор кодека : S_TEXT/UTF8Идентификатор кодека/Информация : UTF-8 Plain TextПродолжительность : 4 м. 51 с.Битрейт : 70 бит/секElementCount : 84Размер потока : 2,51 Кбайт (0%)Заголовок : CCЯзык : EnglishDefault : НетForced : Нет

Текст #2Идентификатор : 4Формат : UTF-8Идентификатор кодека : S_TEXT/UTF8Идентификатор кодека/Информация : UTF-8 Plain TextПродолжительность : 4 м. 56 с.
Предыдущие и альтернативные раздачи

Трекер:  [ 25-Мар-2018 18:24 ]

  

Скачать .torrent

Размер .torrent файла 18 KB


Размер: 1.77 GB
Хэш (hash) релиза: c8b348bfb2bb8c2c68ef64e6bea7eb8523afe225
Подписка на обновления:

Торренты, похожие на Константин: Город Демонов Constantine: City of Demons скачать торрент

Форум Название Автор Размер S L Добавлен
Мультсериалы ·· Константин: Город Демонов / Constantine: City of Demons / Сезон: 1 / Серии: 1-5 из 10 (Даг Мёрфи) [2018, США, Анимация, Фэнтези, Ужасы, WEBRip] DVO (Gears Media) + Original Galfimbul 377783350360 MB 0 0 1522472051

07:54

31-Мар-18

Мультсериалы ·· Константин: Город Демонов / Constantine: City of Demons / Сезон: 1 / Серии: 1-5 из 10 (Даг Мёрфи) [2018, США, Анимация, Фэнтези, Ужасы, WEBRip 720p] DVO (Gears Media) + Original Galfimbul 18443092461.72 GB 0 0 1522470258

07:24

31-Мар-18

Мультсериалы ·· Константин: Город Демонов / Constantine: City of Demons / Сезон: 1 / Серии: 1-5 из 10 (Даг Мёрфи) [2018, США, Анимация, Фэнтези, Ужасы, WEBRip 1080p] DVO (Gears Media) + Original Galfimbul 19861247781.85 GB 0 0 1522470250

07:24

31-Мар-18

Мультсериалы ·· Константин: Город Демонов / Constantine: City of Demons / Сезон: 1 / Серии: 5 из 10 (Даг Мёрфи/Doug Murphy) [2018, США, Анимация, Фэнтези, Ужасы, WEBRip] MVO Galfimbul 19424935591.81 GB 0 0 1522427050

19:24

30-Мар-18

Еще никто не оставлял запись к записи скачать торрент Константин: Город Демонов Constantine: City of Demons . Будь первым!

!Обратная связь