Blood Clots | Latest Reviews | Peach Girl

Скачать через торрент Константин: Город Демонов Constantine: City of Demons Фильм бесплатно в хорошем качестве torrent

Скачивайте на UnionPeer.org фильмы через торрент без регистрации. Новинки кино в хорошем качестве через торрент. На UnionPeer.org можно скачать через торрент фильмы 2014 и 2015 годов. Самые новые фильмы.

Скачать торрент Константин: Город Демонов Constantine: City of Demons бесплатно через .torrent фильм мультфильм сериал

Статистика раздачи
Размер:  1.85 GB   |    Зарегистрирован:  7 месяцев   |    .torrent скачан:  44 раза   |   
Раздают:  1  
   
загрузка...
 
Автор Сообщение

Galfimbul

avatar Galfimbul


Константин: Город Демонов / Constantine: City of Demons
Год выпуска: 2018
Страна: США
Жанр: Анимация, Фэнтези, Ужасы
Продолжительность: ~ 00:05:00

Перевод: Профессиональный (двухголосый закадровый)[Gears Media]

Режиссёр: Даг Мёрфи

В ролях: Мэтт Райан, Эмили О'Брайан, Дэмиан О'Хейр

Описание:
Джон Константин - мастер оккультизма, вооруженный тайным знанием темных искусств и злым остроумием. Его душа, уже проклята до ада, он сделает все возможное, чтобы защитить невинных. С балансом добра и зла на линии, Константин использует свои навыки, чтобы противостоять сверхъестественным страхам, которые угрожают нашему миру и отправляют их там, где они принадлежат. Множество тварей обитают на нашей земле, Константин решает избавиться то них всех с помощь своего нового друга

Сэмпл: http://multi-up.com/1193060

Качество: WEBRip 1080p
Формат: MKV
Видео: X264, 1920x1080 at 23.976 fps, ~8000 kbps avg
Аудио1: Russian, AC3, 48 kHz, 2 ch, 384 kbps
Аудио2: English, AAC, 48 kHz, 2 ch, 97.9 kbps
Субтитры: нет
Реклама: аудио (два раза, в начале и конце, по 12 сек.)
Format : Matroska
Format version : Version 4 / Version 2
File size : 362 MiB
Duration : 5 min 50 s
Overall bit rate : 8 666 kb/s
Encoded date : UTC 2018-03-31 01:18:57
Writing application : mkvmerge v17.0.0 ('Be Ur Friend') 64-bit
Writing library : libebml v1.3.5 + libmatroska v1.4.8

Video
ID : 1
Format : AVC
Format/Info : Advanced Video Codec
Format profile : High@L4
Format settings, CABAC : Yes
Format settings, RefFrames : 4 frames
Codec ID : V_MPEG4/ISO/AVC
Duration : 5 min 50 s
Bit rate : 8 495 kb/s
Width : 1 920 pixels
Height : 1 080 pixels
Display aspect ratio : 16:9
Frame rate mode : Constant
Frame rate : 23.976 (24000/1001) FPS
Color space : YUV
Chroma subsampling : 4:2:0
Bit depth : 8 bits
Scan type : Progressive
Bits/(Pixel*Frame) : 0.171
Stream size : 342 MiB (94%)
Writing library : x264 core 118
Encoding settings : cabac=1 / ref=3 / deblock=1:0:0 / analyse=0x3:0x113 / me=hex / subme=7 / psy=1 / psy_rd=1.00:0.00 / mixed_ref=1 / me_range=16 / chroma_me=1 / trellis=1 / 8x8dct=1 / cqm=0 / deadzone=21,11 / fast_pskip=1 / chroma_qp_offset=-2 / threads=1 / sliced_threads=0 / nr=0 / decimate=1 / interlaced=0 / bluray_compat=0 / constrained_intra=0 / bframes=3 / b_pyramid=2 / b_adapt=1 / b_bias=0 / direct=1 / weightb=1 / open_gop=0 / weightp=2 / keyint=90 / keyint_min=9 / scenecut=40 / intra_refresh=0 / rc_lookahead=40 / rc=2pass / mbtree=1 / bitrate=8495 / ratetol=1.0 / qcomp=0.60 / qpmin=0 / qpmax=69 / qpstep=4 / cplxblur=20.0 / qblur=0.5 / vbv_maxrate=8495 / vbv_bufsize=8495 / nal_hrd=none / ip_ratio=1.40 / aq=1:1.00
Default : Yes
Forced : No

Audio #1
ID : 2
Format : AC-3
Format/Info : Audio Coding 3
Format settings, Endianness : Big
Codec ID : A_AC3
Duration : 5 min 50 s
Bit rate mode : Constant
Bit rate : 384 kb/s
Channel(s) : 2 channels
Channel positions : Front: L R
Sampling rate : 48.0 kHz
Frame rate : 31.250 FPS (1536 SPF)
Bit depth : 16 bits
Compression mode : Lossy
Stream size : 16.0 MiB (4%)
Title : Gears Media
Language : Russian
Service kind : Complete Main
Default : Yes
Forced : Yes

Audio #2
ID : 3
Format : AAC
Format/Info : Advanced Audio Codec
Format profile : LC
Codec ID : A_AAC
Duration : 5 min 50 s
Bit rate : 97.9 kb/s
Channel(s) : 2 channels
Channel positions : Front: L R
Sampling rate : 48.0 kHz
Frame rate : 46.875 FPS (1024 SPF)
Compression mode : Lossy
Stream size : 4.09 MiB (1%)
Language : English
Default : No
Forced : No


Трекер:  [ 31-Мар-2018 07:24 ]

  

Скачать .torrent

Размер .torrent файла 19 KB


Размер: 1.85 GB
Хэш (hash) релиза: 9d88d4032742f65694016074afd1e822962ee3bf
Подписка на обновления:

Еще никто не оставлял запись к записи скачать торрент Константин: Город Демонов Constantine: City of Demons . Будь первым!

!Обратная связь