Incredibles 2 2018 2160p BluRay HEVC TrueHD 7 1 Atmos-COASTER | Eps20 My Hero Academia - Season 3 | John Krasinski

Скачать через торрент Константин: Город Демонов Constantine: City of Demons Фильм бесплатно в хорошем качестве torrent

Скачивайте на UnionPeer.org фильмы через торрент без регистрации. Новинки кино в хорошем качестве через торрент. На UnionPeer.org можно скачать через торрент фильмы 2014 и 2015 годов. Самые новые фильмы.

Скачать торрент Константин: Город Демонов Constantine: City of Demons бесплатно через .torrent фильм мультфильм сериал

Статистика раздачи
Размер:  1.72 GB   |    Зарегистрирован:  7 месяцев   |    .torrent скачан:  53 раза   |   
Раздают:  1  
   
загрузка...
 
Автор Сообщение

Galfimbul

avatar Galfimbul


Константин: Город Демонов / Constantine: City of Demons
Год выпуска: 2018
Страна: США
Жанр: Анимация, Фэнтези, Ужасы
Продолжительность: ~ 00:05:00

Перевод: Профессиональный (двухголосый закадровый)[Gears Media]

Режиссёр: Даг Мёрфи

В ролях: Мэтт Райан, Эмили О'Брайан, Дэмиан О'Хейр

Описание:
Джон Константин - мастер оккультизма, вооруженный тайным знанием темных искусств и злым остроумием. Его душа, уже проклята до ада, он сделает все возможное, чтобы защитить невинных. С балансом добра и зла на линии, Константин использует свои навыки, чтобы противостоять сверхъестественным страхам, которые угрожают нашему миру и отправляют их там, где они принадлежат. Множество тварей обитают на нашей земле, Константин решает избавиться то них всех с помощь своего нового друга

Сэмпл: http://multi-up.com/1193059

Качество: WEBRip 720p
Формат: MKV
Видео: X264, 1280x720 at 23.976 fps, ~8000 kbps avg
Аудио1: Russian, AC3, 48 kHz, 2 ch, 384 kbps
Аудио2: English, AAC, 48 kHz, 2 ch, 97.9 kbps
Субтитры: нет
Реклама: аудио (два раза, в начале и конце, по 12 сек.)
Format : Matroska
Format version : Version 4 / Version 2
File size : 357 MiB
Duration : 5 min 50 s
Overall bit rate mode : Variable
Overall bit rate : 8 553 kb/s
Encoded date : UTC 2018-03-31 01:20:10
Writing application : mkvmerge v17.0.0 ('Be Ur Friend') 64-bit
Writing library : libebml v1.3.5 + libmatroska v1.4.8

Video
ID : 1
Format : AVC
Format/Info : Advanced Video Codec
Format profile : High@L4.1
Format settings, CABAC : Yes
Format settings, RefFrames : 4 frames
Codec ID : V_MPEG4/ISO/AVC
Duration : 5 min 50 s
Bit rate mode : Variable
Bit rate : 8 071 kb/s
Maximum bit rate : 12.0 Mb/s
Width : 1 280 pixels
Height : 720 pixels
Display aspect ratio : 16:9
Frame rate mode : Constant
Frame rate : 23.976 (24000/1001) FPS
Standard : NTSC
Color space : YUV
Chroma subsampling : 4:2:0
Bit depth : 8 bits
Scan type : Progressive
Bits/(Pixel*Frame) : 0.365
Stream size : 337 MiB (94%)
Language : English
Default : Yes
Forced : No
Color range : Limited
Color primaries : BT.709
Transfer characteristics : BT.709
Matrix coefficients : BT.709

Audio #1
ID : 2
Format : AC-3
Format/Info : Audio Coding 3
Format settings, Endianness : Big
Codec ID : A_AC3
Duration : 5 min 50 s
Bit rate mode : Constant
Bit rate : 384 kb/s
Channel(s) : 2 channels
Channel positions : Front: L R
Sampling rate : 48.0 kHz
Frame rate : 31.250 FPS (1536 SPF)
Bit depth : 16 bits
Compression mode : Lossy
Stream size : 16.0 MiB (4%)
Title : Gears Media
Language : Russian
Service kind : Complete Main
Default : Yes
Forced : Yes

Audio #2
ID : 3
Format : AAC
Format/Info : Advanced Audio Codec
Format profile : LC
Codec ID : A_AAC
Duration : 5 min 50 s
Bit rate : 97.9 kb/s
Channel(s) : 2 channels
Channel positions : Front: L R
Sampling rate : 48.0 kHz
Frame rate : 46.875 FPS (1024 SPF)
Compression mode : Lossy
Stream size : 4.09 MiB (1%)
Language : English
Default : No
Forced : No


Трекер:  [ 31-Мар-2018 07:24 ]

  

Скачать .torrent

Размер .torrent файла 18 KB


Размер: 1.72 GB
Хэш (hash) релиза: fca9d234a08d7852fda4b7ae8621d2a1bb5c6cb5
Подписка на обновления:

Еще никто не оставлял запись к записи скачать торрент Константин: Город Демонов Constantine: City of Demons . Будь первым!

!Обратная связь