Thám Tử Lừng Danh Conan chap 575 | Thám Tử Lừng Danh Conan chap 574 | Thám Tử Lừng Danh Conan chap 573

Скачать через торрент Константин: Город Демонов Constantine: City of Demons Фильм бесплатно в хорошем качестве torrent

Скачивайте на UnionPeer.org фильмы через торрент без регистрации. Новинки кино в хорошем качестве через торрент. На UnionPeer.org можно скачать через торрент фильмы 2014 и 2015 годов. Самые новые фильмы.

Скачать торрент Константин: Город Демонов Constantine: City of Demons бесплатно через .torrent фильм мультфильм сериал

Статистика раздачи
Размер:  360 MB   |    Зарегистрирован:  7 месяцев   |    .torrent скачан:  43 раза   |   
Раздают:  1  
   
загрузка...
 
Автор Сообщение

Galfimbul

avatar Galfimbul


Константин: Город Демонов / Constantine: City of Demons
Год выпуска: 2018
Страна: США
Жанр: Анимация, Фэнтези, Ужасы
Продолжительность: ~ 00:05:00

Перевод: Профессиональный (двухголосый закадровый)[Gears Media]

Режиссёр: Даг Мёрфи

В ролях: Мэтт Райан, Эмили О'Брайан, Дэмиан О'Хейр

Описание:
Джон Константин - мастер оккультизма, вооруженный тайным знанием темных искусств и злым остроумием. Его душа, уже проклята до ада, он сделает все возможное, чтобы защитить невинных. С балансом добра и зла на линии, Константин использует свои навыки, чтобы противостоять сверхъестественным страхам, которые угрожают нашему миру и отправляют их там, где они принадлежат. Множество тварей обитают на нашей земле, Константин решает избавиться то них всех с помощь своего нового друга

Сэмпл: http://multi-up.com/1193061

Качество: WEBRip
Формат: AVI
Видео: XviD, 720x400 at 29.970 fps, ~1500 kbps avg
Аудио1: Russian, MP3, 48 kHz, 2 ch, 128 kbps
Аудио2: English, MP3, 48 kHz, 2 ch, 128 kbps
Субтитры: нет
Реклама: аудио (два раза, в начале и конце, по 12 сек.)
Format : AVI
Format/Info : Audio Video Interleave
File size : 71.6 MiB
Duration : 5 min 50 s
Overall bit rate : 1 713 kb/s
Writing application : Lavf56.30.100

Video
ID : 0
Format : xvid
Codec ID : xvid
Duration : 5 min 50 s
Bit rate : 1 436 kb/s
Width : 720 pixels
Height : 400 pixels
Display aspect ratio : 16:9
Frame rate : 23.976 (24000/1001) FPS
Scan type : Progressive
Bits/(Pixel*Frame) : 0.208
Stream size : 60.0 MiB (84%)

Audio #1
ID : 1
Format : MPEG Audio
Format version : Version 1
Format profile : Layer 3
Mode : Joint stereo
Mode extension : MS Stereo
Codec ID : 55
Codec ID/Hint : MP3
Duration : 5 min 50 s
Bit rate mode : Constant
Bit rate : 128 kb/s
Channel(s) : 2 channels
Sampling rate : 48.0 kHz
Compression mode : Lossy
Stream size : 5.35 MiB (7%)
Alignment : Aligned on interleaves
Interleave, duration : 24 ms (0.58 video frame)
Interleave, preload duratio : 24 ms
Title : Gears Media
Writing library : LAME3.99.5ЄЄЄЄЄЄЄЄЄЄ

Audio #2
ID : 2
Format : MPEG Audio
Format version : Version 1
Format profile : Layer 3
Mode : Joint stereo
Mode extension : MS Stereo
Codec ID : 55
Codec ID/Hint : MP3
Duration : 5 min 50 s
Bit rate mode : Constant
Bit rate : 128 kb/s
Channel(s) : 2 channels
Sampling rate : 48.0 kHz
Compression mode : Lossy
Stream size : 5.35 MiB (7%)
Alignment : Aligned on interleaves
Interleave, duration : 24 ms (0.58 video frame)
Writing library : LAME3.99.5


Трекер:  [ 31-Мар-2018 07:54 ]

  

Скачать .torrent

Размер .torrent файла 15 KB


Размер: 360 MB
Хэш (hash) релиза: 9742e26e1c400e907fb8a75dacb6fea5613e31d0
Подписка на обновления:

Еще никто не оставлял запись к записи скачать торрент Константин: Город Демонов Constantine: City of Demons . Будь первым!

!Обратная связь